请选择 进入手机版 | 继续访问电脑版
开启辅助访问 |繁體中文 切换到窄版

香江影视论坛

 找回密码
 立即注册
查看: 99|回复: 3

[香港] [百度][八仙飯店之人肉叉燒飽.The Untold Story.1993][MKV/WEB-DL/1080p/3.45G]

[复制链接]

103

主题

2

听众

262

积分

实习版主

Rank: 6Rank: 6

升级   100%

威望
14
金钱
19216
影币
184
发表于 2019-1-29 08:39:17 |显示全部楼层
八仙饭店之人肉叉烧包 八仙飯店之人肉叉燒飽 (1993)(完整版)
导演: 邱礼涛
编剧: 罗锦辉 / 刘永健
主演: 黄秋生 / 李修贤 / 关宝慧 / 刘兆铭 / 成奎安 / 李华月
类型: 惊悚 / 犯罪
制片国家/地区: 香港
语言: 国粤双语
上映日期: 1993-05-13
片长: 96 分钟
又名: The Untold Story
IMDb链接: tt0103743
八仙饭店之人肉叉烧包的剧情简介:
1978年,香港人陈子良(黄秋生饰)向人借钱不遂,遂起杀机,将老友阿强烧死后潜逃回大陆。多年后化名为王志恒的陈子良在澳门做老板,经营八仙饭店。    
一日澳门警局李探长(李修贤饰)接到海边的报案,到达现场发现一袋断肢。被海水浸泡许久的残肢已经无法辨认。    
八仙饭店总是接到来自大陆寄给郑临的信,同时警察局也接到大陆寻找郑临的寻亲信,而郑临正是八仙饭店以前的老板,而他们全家人已经神秘失踪。    
王志恒形迹可疑,李探长遂率领全组人员跟踪监视,最终发现了一个天大秘密......    
片中黄秋生演技精湛,夺下当年香港电影金像奖最佳男主角,成为香港电影史上第一个凭san级片拿奖的影帝。
1978, Hong Kong person Chen ziliang (huang qiusheng is acted the role of) borrow money to the person not to be then, rise to kill machine then, burn to death old friend a strong hind absconds to the mainland.
After many years alias is wang zhiheng Chen ziliang does boss in Macao, management eight immortals hotel.
One day detective li of Macao police station (li xiuxian is acted the role of) receive seaside report a case, arrive the spot discovers a bag to break limb.
The long-marinated remains were unrecognizable.
eight cents hotel always received from the mainland to send a letter to zheng Lin, at the same time the police also received the mainland to find the letter of zheng Lin, and zheng Lin is the former boss of eight cents hotel, and the whole family has been mysteriously missing.
wang zhiheng suspicious, li detective then led the whole group of personnel tracking surveillance, finally found a big secret...
Huang qiusheng won the best actor award at the Hong Kong film awards for his excellent performance in the film, becoming the first actor in Hong Kong film history to win the best actor award for a third-class film.
==========================================
(Ba xian fan dian)Eng audio,Chn subs
Dub:English,Mardarin,Cantonese
Subs:English,SChn subs,TChn subs
-----------










General
Unique ID                      : 56612380161310418382185809107240010216 (0x2A9725D75F4D9FA23618E2BD2F8AC1E8)
Complete name                  : G:\八仙飯店之人肉叉燒飽.The Untold Story.1993.BluRay.1080p.2Audio.DTS-HD.MA.2.0.x264\八仙飯店之人肉叉燒飽.The Untold Story.1993.BluRay.1080p.2Audio.DTS-HD.MA.2.0.x264.mkv
Format                         : Matroska
Format version                 : Version 4
File size                      : 15.8 GiB
Duration                       : 1 h 35 min
Overall bit rate mode          : Variable
Overall bit rate               : 23.6 Mb/s
Encoded date                   : UTC 2018-12-28 11:21:34
Writing application            : mkvmerge v29.0.0 ('Like It Or Not') 64-bit
Writing library                : libebml v1.3.6 + libmatroska v1.4.9

Video
ID                             : 1
Format                         : AVC
Format/Info                    : Advanced Video Codec
Format profile                 : High@L4.1
Format settings                : CABAC / 4 Ref Frames
Format settings, CABAC         : Yes
Format settings, ReFrames      : 4 frames
Codec ID                       : V_MPEG4/ISO/AVC
Duration                       : 1 h 35 min
Bit rate                       : 19.8 Mb/s
Width                          : 1 920 pixels
Height                         : 1 080 pixels
Display aspect ratio           : 16:9
Frame rate mode                : Constant
Frame rate                     : 23.976 (24000/1001) FPS
Color space                    : YUV
Chroma subsampling             : 4:2:0
Bit depth                      : 8 bits
Scan type                      : Progressive
Bits/(Pixel*Frame)             : 0.398
Stream size                    : 13.3 GiB (84%)
Title                          : MPEG-4 x264@High Profile L4.1, 24/1.001 fps @ 19800 kbps
Writing library                : x264 core 157 r2935 545de2f
Encoding settings              : cabac=1 / ref=4 / deblock=1:-3:-3 / analyse=0x3:0x133 / me=umh / subme=11 / psy=1 / psy_rd=1.00:0.00 / mixed_ref=1 / me_range=32 / chroma_me=1 / trellis=2 / 8x8dct=1 / cqm=0 / deadzone=21,11 / fast_pskip=0 / chroma_qp_offset=-2 / threads=12 / lookahead_threads=1 / sliced_threads=0 / nr=0 / decimate=0 / interlaced=0 / bluray_compat=0 / constrained_intra=0 / bframes=6 / b_pyramid=2 / b_adapt=2 / b_bias=0 / direct=3 / weightb=1 / open_gop=0 / weightp=2 / keyint=240 / keyint_min=23 / scenecut=40 / intra_refresh=0 / rc_lookahead=60 / rc=2pass / mbtree=1 / bitrate=19800 / ratetol=1.0 / qcomp=0.60 / qpmin=0 / qpmax=69 / qpstep=4 / cplxblur=20.0 / qblur=0.5 / vbv_maxrate=45000 / vbv_bufsize=45000 / nal_hrd=none / filler=0 / ip_ratio=1.40 / aq=1:0.60
Language                       : English
Default                        : Yes
Forced                         : No

Audio #1
ID                             : 2
Format                         : DTS XLL
Format/Info                    : Digital Theater Systems
Commercial name                : DTS-HD Master Audio
Codec ID                       : A_DTS
Duration                       : 1 h 35 min
Bit rate mode                  : Variable
Bit rate                       : 1 671 kb/s
Channel(s)                     : 2 channels
Channel layout                 : L R
Sampling rate                  : 48.0 kHz
Frame rate                     : 93.750 FPS (512 SPF)
Bit depth                      : 16 bits
Compression mode               : Lossless
Stream size                    : 1.12 GiB (7%)
Title                          : Cantonese DTS-HD Master Audio 2.0 @ 1671 kbps  粤语
Language                       : Chinese
Default                        : Yes
Forced                         : No

Audio #2
ID                             : 3
Format                         : DTS XLL
Format/Info                    : Digital Theater Systems
Commercial name                : DTS-HD Master Audio
Codec ID                       : A_DTS
Duration                       : 1 h 35 min
Bit rate mode                  : Variable
Bit rate                       : 1 680 kb/s
Channel(s)                     : 2 channels
Channel layout                 : L R
Sampling rate                  : 48.0 kHz
Frame rate                     : 93.750 FPS (512 SPF)
Bit depth                      : 16 bits
Compression mode               : Lossless
Stream size                    : 1.13 GiB (7%)
Title                          : Mandarin DTS-HD Master Audio 2.0 @ 1680 kbps  国语
Language                       : Chinese
Default                        : No
Forced                         : No

Audio #3
ID                             : 4
Format                         : AC-3
Format/Info                    : Audio Coding 3
Commercial name                : Dolby Digital
Codec ID                       : A_AC3
Duration                       : 1 h 35 min
Bit rate mode                  : Constant
Bit rate                       : 192 kb/s
Channel(s)                     : 2 channels
Channel layout                 : L R
Sampling rate                  : 48.0 kHz
Frame rate                     : 31.250 FPS (1536 SPF)
Bit depth                      : 16 bits
Compression mode               : Lossy
Stream size                    : 132 MiB (1%)
Title                          : English Dolby Digital Audio 2.0 @ 192 kbps  Commentary 1
Language                       : English
Service kind                   : Complete Main
Default                        : No
Forced                         : No

Audio #4
ID                             : 5
Format                         : AC-3
Format/Info                    : Audio Coding 3
Commercial name                : Dolby Digital
Codec ID                       : A_AC3
Duration                       : 1 h 35 min
Bit rate mode                  : Constant
Bit rate                       : 192 kb/s
Channel(s)                     : 2 channels
Channel layout                 : L R
Sampling rate                  : 48.0 kHz
Frame rate                     : 31.250 FPS (1536 SPF)
Bit depth                      : 16 bits
Compression mode               : Lossy
Stream size                    : 132 MiB (1%)
Title                          : English Dolby Digital Audio 2.0 @ 192 kbps  Commentary 2
Language                       : English
Service kind                   : Complete Main
Default                        : No
Forced                         : No

Text #1
ID                             : 6
Format                         : PGS
Codec ID                       : S_HDMV/PGS
Codec ID/Info                  : Picture based subtitle format used on BDs/HD-DVDs
Duration                       : 1 h 35 min
Bit rate                       : 19.9 kb/s
Count of elements              : 2049
Stream size                    : 13.6 MiB (0%)
Title                          : Chs/SUP  简体
Language                       : Chinese
Default                        : Yes
Forced                         : No

Text #2
ID                             : 7
Format                         : PGS
Codec ID                       : S_HDMV/PGS
Codec ID/Info                  : Picture based subtitle format used on BDs/HD-DVDs
Duration                       : 1 h 35 min
Bit rate                       : 20.4 kb/s
Count of elements              : 2049
Stream size                    : 14.0 MiB (0%)
Title                          : Cht/SUP  繁体
Language                       : English
Default                        : No
Forced                         : No
【下载地址】:
购买主题 本主题需向作者支付 300 金钱 才能浏览
muse    

1

主题

0

听众

43

积分

新手上路

Rank: 1

升级   86%

威望
0
金钱
4330
影币
0
发表于 2019-1-29 11:46:45 |显示全部楼层
很经典,很恐怖,谢谢分享!
[发帖际遇]: muse 乐于助人,奖励 26 金钱. 幸运榜 / 衰神榜

132

主题

0

听众

585

积分

超级会员

Rank: 4

升级   100%

威望
10
金钱
49015
影币
1088
发表于 2019-1-29 12:58:15 |显示全部楼层
看着好吓人

5

主题

1

听众

934

积分

高级会员

Rank: 4

升级   86.8%

威望
0
金钱
24394
影币
1173
发表于 2019-1-29 14:49:15 |显示全部楼层
应该是三级的了。
您需要登录后才可以回帖 登录 | 立即注册

关闭

站长推荐上一条 /3 下一条

QQ|Archiver|手机版|联系本站|免责声明|香江影视

GMT+8, 2019-2-18 06:29 , Processed in 0.243535 second(s), 42 queries .

Powered by Discuz! X2.5

© 2001-2012 Comsenz Inc.

回顶部