请选择 进入手机版 | 继续访问电脑版
开启辅助访问 |繁體中文 切换到窄版

香江影视论坛

 找回密码
 立即注册
查看: 437|回复: 10

[香港] [百度][妙探孖寶(完整版).Two Jolly Cops.1985][1080p/MP4/WEB-DL/3.54G]

[复制链接]

103

主题

2

听众

273

积分

实习版主

Rank: 6Rank: 6

升级   100%

威望
14
金钱
20253
影币
184
发表于 2019-1-28 21:33:48 |显示全部楼层
妙探孖宝 妙探孖寶 (1985)
导演: 唐伟成
主演: 刘家辉 / 曹查理 / 太保 / 邝美宝 / 徐少强 / 午马
类型: 喜剧
制片国家/地区: 香港
语言: 国语
上映日期: 1985-05-31
片长: 92 分钟
又名: Two Jolly Cops
IMDb链接: tt7674394
--------------
(Miao tan zi bao) Chinese Audio,Chinese subs
DUB:Mandarin
SUBS:Chinese subs
=============================






------------------
General
Complete name                  : E:\妙探孖宝.Two Jolly Cops.(1985).1080p.web-dl.mp4
Format                         : MPEG-4
Format profile                 : Base Media / Version 2
Codec ID                       : mp42 (isom/iso2/avc1/mp41)
File size                      : 3.54 GiB
Duration                       : 1 h 31 min
Overall bit rate mode          : Variable
Overall bit rate               : 5 502 kb/s
Encoded date                   : UTC 2018-12-31 01:55:00
Tagged date                    : UTC 2018-12-31 01:55:00
Writing application            : HandBrake 1.1.1 2018061800

Video
ID                             : 1
Format                         : AVC
Format/Info                    : Advanced Video Codec
Format profile                 : High@L4
Format settings                : CABAC / 4 Ref Frames
Format settings, CABAC         : Yes
Format settings, ReFrames      : 4 frames
Codec ID                       : avc1
Codec ID/Info                  : Advanced Video Coding
Duration                       : 1 h 31 min
Bit rate                       : 5 336 kb/s
Width                          : 1 920 pixels
Height                         : 1 080 pixels
Display aspect ratio           : 16:9
Frame rate mode                : Constant
Frame rate                     : 30.000 FPS
Color space                    : YUV
Chroma subsampling             : 4:2:0
Bit depth                      : 8 bits
Scan type                      : Progressive
Bits/(Pixel*Frame)             : 0.086
Stream size                    : 3.43 GiB (97%)
Writing library                : x264 core 155 r2901 7d0ff22
Encoding settings              : cabac=1 / ref=4 / deblock=1:0:0 / analyse=0x3:0x113 / me=hex / subme=8 / psy=1 / psy_rd=1.00:0.00 / mixed_ref=1 / me_range=16 / chroma_me=1 / trellis=2 / 8x8dct=1 / cqm=0 / deadzone=21,11 / fast_pskip=1 / chroma_qp_offset=-2 / threads=12 / lookahead_threads=2 / sliced_threads=0 / nr=0 / decimate=1 / interlaced=0 / bluray_compat=0 / constrained_intra=0 / bframes=3 / b_pyramid=2 / b_adapt=1 / b_bias=0 / direct=3 / weightb=1 / open_gop=0 / weightp=2 / keyint=300 / keyint_min=30 / scenecut=40 / intra_refresh=0 / rc_lookahead=50 / rc=crf / mbtree=1 / crf=20.0 / qcomp=0.60 / qpmin=0 / qpmax=69 / qpstep=4 / vbv_maxrate=25000 / vbv_bufsize=31250 / crf_max=0.0 / nal_hrd=none / filler=0 / ip_ratio=1.40 / aq=1:1.00
Encoded date                   : UTC 2018-12-31 01:55:00
Tagged date                    : UTC 2018-12-31 01:55:00
Color range                    : Limited
Color primaries                : BT.709
Transfer characteristics       : BT.709
Matrix coefficients            : BT.709
Codec configuration box        : avcC

Audio
ID                             : 2
Format                         : AAC LC
Format/Info                    : Advanced Audio Codec Low Complexity
Codec ID                       : mp4a-40-2
Duration                       : 1 h 31 min
Bit rate mode                  : Variable
Bit rate                       : 160 kb/s
Channel(s)                     : 2 channels
Channel layout                 : L R
Sampling rate                  : 48.0 kHz
Frame rate                     : 46.875 FPS (1024 SPF)
Compression mode               : Lossy
Stream size                    : 105 MiB (3%)
Title                          : Stereo / Stereo
Default                        : Yes
Alternate group                : 1
Encoded date                   : UTC 2018-12-31 01:55:00
Tagged date                    : UTC 2018-12-31 01:55:00
【下載地址】:
购买主题 已有 8 人购买  本主题需向作者支付 300 金钱 才能浏览

13

主题

0

听众

51

积分

注册会员

Rank: 2

升级   0.67%

威望
1
金钱
3597
影币
217
发表于 2019-1-28 22:11:14 |显示全部楼层
好片,支持下载

1

主题

0

听众

109

积分

注册会员

Rank: 2

升级   39.33%

威望
1
金钱
10651
影币
0

社区QQ达人

发表于 2019-1-28 23:58:45 |显示全部楼层
完整版要看看了

0

主题

0

听众

16

积分

新手上路

Rank: 1

升级   32%

威望
0
金钱
1571
影币
0
发表于 2019-1-29 08:42:33 |显示全部楼层
支持下载
muse    

1

主题

0

听众

50

积分

注册会员

Rank: 2

升级   0%

威望
0
金钱
5004
影币
0
发表于 2019-1-29 11:50:38 |显示全部楼层
谢谢分享!正好想看喜剧片!

0

主题

0

听众

15

积分

新手上路

Rank: 1

升级   30%

威望
0
金钱
1008
影币
188
发表于 2019-1-29 13:35:25 |显示全部楼层
多谢分享!

5

主题

1

听众

945

积分

高级会员

Rank: 4

升级   89%

威望
0
金钱
25582
影币
1173
发表于 2019-1-29 14:50:10 |显示全部楼层
曹查理,看到他就想起了很多 。
cnlcf    

8

主题

0

听众

41

积分

新手上路

Rank: 1

升级   82%

威望
2
金钱
2010
影币
37

社区QQ达人

发表于 2019-1-29 21:18:14 |显示全部楼层
修复版本就是不错

73

主题

0

听众

139

积分

注册会员

Rank: 2

升级   59.33%

威望
0
金钱
12720
影币
0

社区QQ达人 十二生肖-亥猪 处女座

发表于 2019-1-29 21:37:18 |显示全部楼层
look!!!!!!

0

主题

0

听众

133

积分

注册会员

Rank: 2

升级   55.33%

威望
0
金钱
8918
影币
218
发表于 2019-2-5 17:36:07 |显示全部楼层
高清电影谢谢分享
您需要登录后才可以回帖 登录 | 立即注册

关闭

站长推荐上一条 /3 下一条

QQ|Archiver|手机版|联系本站|免责声明|香江影视

GMT+8, 2019-4-20 18:36 , Processed in 0.546484 second(s), 42 queries .

Powered by Discuz! X2.5

© 2001-2012 Comsenz Inc.

回顶部